#TITLE:Xanadu by young_editer@hotmail.com;
#ARTIST:Stormlord;
#FILE:Stormlord (Xanadu).mp3;
#BPM:104.000;
#GAP:220;
#SAMPLESTART:99.740;
#SAMPLELENGTH:12.000;
#CDTITLE:Nepex-Chart.bmp;
#FREEZE:2362.000=800.000;
#CHANGEBPM:168.000=208.000,1816.000=225.000,2364.000=212.000,2652.000=208.000,3260.000=125.000,3264.000=118.000,3268.000=110.000,3272.000=97.500,3276.000=91.501,3280.000=73.001,3316.000=197.501;
#SINGLE:MANIAC:13:
07!7000820
{600020000000000060002004B!B000000000000000000000000000000040000000}
{0080000000400020008000200040000080000004000000<6A!A>00000000000000000}
(0000204000626400)
`<83!3>00000000000000000000000000000000000000000000000000000000000400000000000000000000000000000000000600000000000000000000000800000004000000080000000400000008000000040000000800000004000000080000000'
[4848484<29!9>0000000000600002]
{0000006002006004006000002000600040006000<81!1>00000000000000000000000}
`0000000000000000000000004000000000000000000000006000400000006000000000004000006000400000006000000000004000006000400000006000000000004000006000400000006000000000004000002000003!300000000000000000'
00020000
(000<67!7>000000004000)
(0000000092842862)
(8282846284242828)
(2868628284646282)
(6282686282842462)
(8424828464646462)
(8424628284246284)
(2424262426242628)
(6282628682868284)
(246284246000A000)
48B02030
84A06070
62903!337!7<73!3>
33!3<37!7>7B!B0<19>0
627040A0
46106070
42903!33B!B<BA!A>
AA!A<AB!B>B1!10<19>0
(2080B00028628262)
(8424628424842482)
(8268286282682868)
(2868282828628242)
(8242842462826824)
(6824286468246828)
(6242842628642624)
(2828284628268628)
(4648400008280002)
(620006260400A000)
84304030
84304090
2670A!AAB!B<BA!A>
AA!A<AB!B>B1!10<19>0
42B020A0
40902070
(204090261!10109!90<91!1>0)
11!1<19!9>9A!A0<19>0
(6080106284246282)
(8462826828628464)
(62843!3030B!B0B07!777!77)
(7!777!777!777!777!77003!30<37!7>0)
(707!70<73!3>0<61>81!10<61>0B!BBB!BB)
(B!BBB!BBB!BBB!BBB!B<8B>246824)
(682468249!9090B!BBB!BB)
(B!BBB!BBB!BBB!B<8B>B!BB001!10<19!9>0)
(909!90<91!1>01048264826)
(4826482648264826)
(482640001!1010A!AAA!AA)
(A!AAA!AAA!AAA!A<83>A!A0A07!70<73!3>0)
(303!30<37!7>0703!30307!777!77)
(7!777!777!777!777!7<81>864286)
(42864286A!A0A03!333!33)
(3!333!333!333!3<83>3!33003!30<37!7>0)
(707!70<73!3>03062846284)
(6284628462846284)
(628430804060A040)
(204090282080B020)
(6040A000B!BB828040)
(64604640A!AA426040)
(8240428040803040)
(602070642060A040)
(2080B00062842828)
(6284628462842424)
(828610804060A040)
(204090282080B020)
(6040A000B!BB828040)
(64604640A!AA426040)
(8240428040803040)
(6020706420409020)
(6080100084286284)
(6284242828628462)
(8428100028628262)
(8424628424842482)
(8268286282682868)
(2868282828628242)
(8242842462826824)
(6824286468246828)
(6242842628642624)
(2828284628268628)
(464646426000A000)
48B02030
84A06070
62903!337!7<73!3>
33!3<37!7>7B!B0<19>0
627040A0
46106070
(402090003!3030B!B0<BA!A>6)
<81>A!A<AB!B>B1!10<19>0
(2080B00028628428)
(62868242B!B0B09!999!99)
(9!999!999!999!9<8B>9!999!999!999!99)
(9!999!999!999!999!9<91!1><19!9>9A!AA1!11)
(3!3<37!7><73!3>3702080B!BB109!9<91!1>)
(<19!9><91!1><19!9><91!1><19!9>900A!A0A07!777!77)
(7!777!777!777!7<81>7!777!777!777!77)
(7!777!777!777!777!7<73!3><37!7>7B!BB3!33)
(9!9<91!1><19!9>9106040A!AA307!7<73!3>)
(<37!7><73!3><37!7><73!3><37!7>700A!A0A03!333!33)
(3!333!333!333!3<83>3!333!333!333!33)
(3!333!333!333!333!3<37!7><73!3>3B!BB7!77)
(1!1<19!9><91!1>1904060A!AA703!3<37!7>)
(<73!3><37!7><73!3><37!7><73!3>300B!B0B01!111!11)
(1!111!111!111!1<61>1!111!111!111!11)
(1!111!111!111!111!1<19!9><91!1>1A!AA9!99)
(7!7<73!3><37!7>7308020B!BB901!1<19!9>)
(<91!1><19!9><91!1><19!9><91!1>1001060A040)
92B838B2
(904090281060A060)
1834A494
(30429020B0801060)
A6729492
76A676A4
(30827060A0403080)
(A628428240803080)
B2949276
(A06810803040A040)
(9040300092468246)
(8246824670209040)
(90207060A0627060)
(A4643828B060A040)
(3080A06072842848)
(68627000A090A010)
A9BA1A3A
73BA3971
ABA7A393
7AB1A73A
97A73BAB
(90A07030A0904286)
(2842482846284286)
(2842800090A07030)
9BA7AB39
B1ABA739
B7137139
B73937AB
1A37A39B
7A139B7A
(3070309042862846)
(2846200042428628)
(28464686A0900070)
(A00030007!70702862)
(8462842482846282)
(8682868284246282)
(8684868482624282)
(4284246284628284)
(6284242428628268)
(2862842424282482)
(4284208686800284)
(0084600462006000)
A048B020
3084A060
7062903!33
7!7<73!3>33!3<37!7>7B!B0
<19>048B020
3084A060
(7000602090483000)
703010B0
(A000602070264828)
(4628428642862820)
(8620268086404640)
(8280286042806280)
(8620642084208620)
(6820824028608420)
(8620842062806460)
(2820642046208240)
(4280846028606820)
(2640462082404280)
(4620264086206420)
(6460828062808260)
(4280862084602840)
(2480282062808260)
(8620624042606840)
(4860682028402460)
(2680284062804620)
(8460286042804628)
(4628284286282682)
(8628424828428682)
(4286824682428642)
(8682468242864286)
(2842862842862842)
(8628284282482428)
(6828626828602048)
26284640
A028B084
30027640
3048B084
A6049280
B0267084
A6083860
(700020409028B020)
6A429028
B2843824
92861864
38627242
B286A428
B2849282
{B0000000800000002000000040000000A000000040000000<8!83!3>00000000000000<83>}
{<6!61!1>00000000000000<61><8!8B!B>00000000000000<8B><8!81!1>00000000000000<81><8!83!3>00000000000000<83>}
{<6!61!1>00000000000000<61><1!19!9>00000000000000000000000000000000000000000000000}
{000000000000000000000000000000000000000000000000<19>00000007!7000703!30}
{0020<6A!A>0000AA!A00008100060002000800040002000800060002000800020004000}
(2868482628428286)
(284286284282B!B0B0)
(0028B!B0000000B000)
;
